Skip to main content

Strangefolk Live at City Market Cafe on 1992-04-29

Audio Preview

etree
Strangefolk Live at City Market Cafe on 1992-04-29




Reid and Jon

Setlist

1. Blackbird
2. Melissa
3. Vitality
4. Angry at the Sun
5. Woke Up
6. Midnight Rider
7. Things that Fly
8. Freedom
9. 4 and 20
10. Blues Tune
11. Whiskey River >
12. Midnight Moonlight
13. Two Boys
14. Jon Noodling
15. Far From Yourself
16. Wind and Rain
17. Country Tune
18. Dance


Notes:

Freedom and Dance cut out
Tape says this was a DSBD but I believe it was a cassette master
based on the cuts in freedom at 45 minutes and Dance at 90 minutes
I believe this is the first known recording of Strangefolk - Reid
answers an audience member very faintly at one point in the show when
asked "What do you guys call yourself?" and his answer is "Strangefolk"


Collection Strangefolk
Band/Artist Strangefolk
Venue City Market Cafe
Location Burlington, VT

Source SBD (48.0)
Lineage Tascam DA-20 MKII > Tascam HD-P2 > Sony Soundforge 8.0 (44.1) > CD Wave > Flac
Taped by Scott Crutchfield
Transferred by Patrick Price

Notes

Shntool Output:

length expanded size cdr WAVE problems fmt ratio filename
3:30.63 37192220 B --- -- ---xx flac 0.5039 reidjon1992-04-29s1t01.flac
6:05.18 64428380 B --- -- ---xx flac 0.5583 reidjon1992-04-29s1t02.flac
3:00.73 31923740 B --- -- ---xx flac 0.5484 reidjon1992-04-29s1t03.flac
5:03.16 53486876 B --- -- ---xx flac 0.5873 reidjon1992-04-29s1t04.flac
5:06.32 54053708 B --- -- ---xx flac 0.5579 reidjon1992-04-29s1t05.flac
7:58.73 84490940 B --- -- ---xx flac 0.5480 reidjon1992-04-29s1t06.flac
8:54.25 94256444 B --- -- ---xx flac 0.5817 reidjon1992-04-29s1t07.flac
4:58.43 52668380 B --- -- ---xx flac 0.6148 reidjon1992-04-29s1t08.flac
4:03.41 42961676 B --- -- ---xx flac 0.5057 reidjon1992-04-29s1t09.flac
4:28.11 47301116 B --- -- ---xx flac 0.5403 reidjon1992-04-29s1t10.flac
5:30.52 58334348 B --- -- ---xx flac 0.5569 reidjon1992-04-29s1t11.flac
4:42.15 49780124 B --- -- ---xx flac 0.5589 reidjon1992-04-29s1t12.flac
5:42.56 60460556 B --- -- ---xx flac 0.5685 reidjon1992-04-29s1t13.flac
3:07.58 33123260 B --- -- ---xx flac 0.4766 reidjon1992-04-29s1t14.flac
6:22.25 67443644 B --- -- ---xx flac 0.5111 reidjon1992-04-29s1t15.flac
5:06.06 53992556 B --- -- ---xx flac 0.5162 reidjon1992-04-29s1t16.flac
2:56.31 31119356 B --- -- ---xx flac 0.5587 reidjon1992-04-29s1t17.flac
3:29.53 36992300 B --- -- ---xx flac 0.5286 reidjon1992-04-29s1t18.flac
90:08.16 954009624 B 0.5496 (18 files)

comment
Reviews

Reviewer: Chittenden3rd - favoritefavoritefavorite - January 21, 2012
Subject: big Trafton fan 2^^^^
straight outta noclas$
Reviewer: njpg - favoritefavoritefavorite - January 18, 2012
Subject: Trafton is one of my favorite guitarists,
and it's great to hear him from when he's just coming up. They sound like a couple of hippies with guitars, albeit seriously skillful ones, though the limitation of the singer's range is really evident in this format.
DOWNLOAD OPTIONS
In Collection
Strangefolk
In Collection
Live Music Archive
Uploaded by
pprice
on 8/16/2011
Views
792
Favorites
1
Reviews
2
SIMILAR ITEMS (based on metadata)
Strangefolk
by Strangefolk
etree
eye 1,879
favorite 2
comment 0
Source: SBD > Master Cass > DAT > Sony DTC 700 > digital ouput > Philips CDR 870 > CD-R*
Strangefolk
by Strangefolk
etree
eye 882
favorite 2
comment 1
( 1 reviews )
Source: various
Strangefolk
by Strangefolk
etree
eye 1,294
favorite 2
comment 2
favoritefavoritefavoritefavoritefavorite ( 2 reviews )
Source: M200 + SBD > Busman R4
Strangefolk
by Strangefolk
etree
eye 112
favorite 0
comment 0
Source: sbd > d-8> dat
Strangefolk
by Strangefolk
etree
eye 102
favorite 0
comment 0
Source: DSBD (48.0)
Strangefolk
by Strangefolk
etree
eye 936
favorite 0
comment 1
favoritefavoritefavoritefavoritefavorite ( 1 reviews )
Source: Schoeps CCM4's>SBD>Edirol R-44
Strangefolk
by Strangefolk
etree
eye 7,659
favorite 0
comment 3
favoritefavoritefavoritefavoritefavorite ( 3 reviews )
Source: SBD>Edirol UA5>Schoeps CCM4'S>M1
Strangefolk
by Strangefolk
etree
eye 283
favorite 0
comment 0
Source: DSBD (48.0)
Strangefolk
by Strangefolk
etree
eye 714
favorite 0
comment 1
favoritefavoritefavoritefavoritefavorite ( 1 reviews )
Source: DSBD
Strangefolk
by Strangefolk
etree
eye 1,213
favorite 0
comment 1
favoritefavoritefavoritefavoritefavorite ( 1 reviews )
Source: SBD > DA-P1